Сообщения без ответов | Активные темы Текущее время: 09 авг 2020, 00:30



Ответить на тему  [ Сообщений: 5 ] 
 Sega CD - Fusion 
Автор Сообщение
Сообщение 30 апр 2009, 12:41
Профиль

Зарегистрирован:
29 апр 2009, 11:25
Сообщения: 11
День добрый. Есть Игра shining_force_cd.iso. К ней есть набор MP3. Есть Эмулятор Fusion, который нормально её играет, только без музыки. Т.е. звуки есть, но фоновой музыки нет. Вопрос: как заставить воспроизводить музыку из мптрёх?


Сообщение 30 апр 2009, 13:05
Профиль
Аватара пользователя

Зарегистрирован:
22 июл 2007, 02:12
Сообщения: 235
Откуда: Беларусь, Гомель
Всё должно быть поименовано в виде:
shining_force_cd.iso
shining_force_cd02.mp3
shining_force_cd03.mp3
shining_force_cd04.mp3
и т.д.

_________________
Каждому чайнику чайником по чайнику.


Сообщение 30 апр 2009, 13:34
Профиль

Зарегистрирован:
29 апр 2009, 11:25
Сообщения: 11
У меня iso и cue + 34 mp3.

shining_force_cd.cue
shining_force_cd.iso
shining_force_cd_02.mp3
shining_force_cd_03.mp3
...
shining_force_cd_35.mp3

Содержимое shining_force_cd.cue:

FILE "shining_force_cd.iso" BINARY
TRACK 01 MODE1/2048
INDEX 01 00:00:00
POSTGAP 00:02:00
FILE "shining_force_cd_02.mp3" MP3
TRACK 02 AUDIO
PREGAP 00:02:00
INDEX 01 00:00:00
....
FILE "shining_force_cd_35.mp3" MP3
TRACK 35 AUDIO
INDEX 01 00:00:00

Проблем нет ни с чем, кроме музыки.


Сообщение 30 апр 2009, 16:23
Профиль WWW
Основатель сайта
Аватара пользователя

Зарегистрирован:
21 июл 2007, 15:40
Сообщения: 2225
Откуда: Москва
Выдержка из readme.txt эмулятора:
Цитата:
Fusion supports ISO+MP3 and ISO+WAV for SegaCD. For this feature to work
the ISO and MP3s or WAVs need to be in the same folder, and they need to be
named correctly.

If your ISO file (which is track 1 on a CD) is named example.iso then the
MP3s/WAVs need to have the same name, followed by a two digit track number,
and then the MP3 or WAV extension. E.G:

example.iso (this would be track 1 on a CD)
example 02.mp3 (because the first audio track is track 2 on a CD)
example 03.mp3
example 04.mp3 (etc.etc.)

A common problem is having "hide extensions for known file types" set in
Windows Folder options. This means that your files will end up being named,
for example, 02.mp3.mp3 - and therefore not loaded - because you cannot
see the final mp3 extension.

Finally, Fusion uses the Windows MP3 Codec to decode MP3s. If your codec is
missing or damaged you need to reinstall it. Google should help you find an
MP3 ACM codec installer.

Попробуй переименовать файлы именно так, как указано здесь.


Сообщение 30 апр 2009, 22:05
Профиль

Зарегистрирован:
29 апр 2009, 11:25
Сообщения: 11
Всё работает. порядок. Конветрнул МП3 в ВАВы и переделал образ.


Показать сообщения за:  Поле сортировки  
Ответить на тему   [ Сообщений: 5 ] 

Кто сейчас на конференции

Сейчас этот форум просматривают: нет зарегистрированных пользователей и гости: 1


Вы не можете начинать темы
Вы не можете отвечать на сообщения
Вы не можете редактировать свои сообщения
Вы не можете удалять свои сообщения
Вы не можете добавлять вложения

Найти:
Перейти:  
Powered by phpBB © 2000, 2002, 2005, 2007 phpBB Group.
Designed by STSoftware for PTF (mod by Zeru-j).
Русская поддержка phpBB